<?xml version="1.0" standalone="no"?>
<!DOCTYPE svg PUBLIC "-//W3C//DTD SVG 1.1//EN" "http://www.w3.org/Graphics/SVG/1.1/DTD/svg11.dtd" >
<svg xmlns="http://www.w3.org/2000/svg">
<metadata>Generated by IcoMoon</metadata>
<defs>
<font id="iconfont-lugano" horiz-adv-x="1024">
<font-face units-per-em="1024" ascent="960" descent="-64" />
<missing-glyph horiz-adv-x="1024" />
<glyph unicode="&#x20;" horiz-adv-x="512" d="" />
<glyph unicode="&#xe900;" glyph-name="arrow-down" d="M567.942 948.581v-598.147h-108.754v598.147h108.754zM516.581-84.581l-432 464.221 75.108 79.549 356.892-383.006 347.829 383.006 84.171-79.549-432-464.221z" />
<glyph unicode="&#xe901;" glyph-name="arrow-left" d="M1033.163 380.639h-598.147v108.754h598.147v-108.754zM0 432l464.221 432 79.549-75.108-383.006-356.892 383.006-347.829-79.549-84.171-464.221 432z" />
<glyph unicode="&#xe902;" glyph-name="arrow-right" d="M0 483.361h598.147v-108.754h-598.147v108.754zM1033.163 432l-464.221-432-79.549 75.108 383.006 356.892-383.006 347.829 79.549 84.171 464.221-432z" />
<glyph unicode="&#xe903;" glyph-name="arrow-up" d="M465.22-84.581v598.147h108.754v-598.147h-108.754zM516.582 948.581l432-464.221-75.108-79.549-356.892 383.006-347.829-383.006-84.171 79.549 432 464.221z" />
<glyph unicode="&#xe904;" glyph-name="arrow2-down" d="M192 448l550.188-512 94.28 99.758-453.934 412.242 453.934 422.983-94.28 89.017z" />
<glyph unicode="&#xe905;" glyph-name="arrow2-left" d="M514.234 770.234l-512-550.188 99.758-94.28 412.242 453.934 422.983-453.934 89.017 94.28z" />
<glyph unicode="&#xe906;" glyph-name="arrow2-right" d="M514.234 125.766l512 550.188-99.758 94.28-412.242-453.934-422.983 453.934-89.017-94.28z" />
<glyph unicode="&#xe907;" glyph-name="arrow2-up" d="M836.468 448l-550.188 512-94.28-99.758 453.934-412.242-453.934-422.983 94.28-89.017z" />
<glyph unicode="&#xe908;" glyph-name="burger" d="M0 111.543h1024v-87.771h-1024v87.771zM0 491.886h1024v-87.771h-1024v87.771zM0 872.229h1024v-87.771h-1024v87.771z" />
<glyph unicode="&#xe909;" glyph-name="close" d="M429.083 450.464l-429.083 429.083 80.453 80.453 429.083-429.083 429.083 429.083 80.453-80.453-429.083-429.083 429.083-429.083-80.453-80.453-429.083 429.083-429.083-429.083-80.453 80.453 429.083 429.083z" />
<glyph unicode="&#xe90a;" glyph-name="form-calendar" d="M207.181 5.060h609.637c57.869 0 104.781 46.912 104.781 104.781v552.484c0 57.869-46.912 104.781-104.781 104.781h-76.258v61.916c0 15.782-29.616 28.577-45.399 28.577s-47.963-12.794-47.963-28.577v-61.916h-270.399v61.916c0 15.782-32.18 28.577-47.963 28.577s-45.399-12.794-45.399-28.577v-61.916h-76.258c-57.869 0-104.781-46.912-104.781-104.781v-552.484c0-57.869 46.912-104.781 104.781-104.781zM799.59 98.422h-575.179c-24.817 0-28.649 13.266-28.649 38.238v297.932h632.477v-307.344c0-16.648-9.55-26.257-28.649-28.827zM233.476 673.745h54.699v-35.128c0-15.783 29.616-28.577 45.399-28.577s47.963 12.794 47.963 28.577v35.128h270.399v-35.128c0-15.783 32.18-28.577 47.963-28.577s45.399 12.794 45.399 28.577v35.128h52.576c26.304 0 30.365-4.061 30.365-30.365v-134.371h-632.477v127.022c0 26.304 11.41 37.715 37.715 37.715z" />
<glyph unicode="&#xe90b;" glyph-name="form-mail" d="M959.381 735.34c-6.721 12.479-19.862 20.144-34.033 19.852l-421.025-4.254-410.325-2.191c-7.222-0.078-14.278-2.177-20.368-6.059l-2.578-0.902c-12.252-6.826-19.849-19.75-19.852-33.775v-528.537c0-21.359 17.315-38.673 38.673-38.673h842.307c21.359 0 38.673 17.315 38.673 38.673v528.537c-0.043 10.272-4.171 20.105-11.473 27.329zM806.363 656.866l-297.399-161.43-286.957 156.918 584.356 4.512zM873.688 237.966h-725.322v361.18l340.23-201.779c12.384-7.572 27.965-7.572 40.349 0l344.742 202.166v-361.567z" />
<glyph unicode="&#xe90c;" glyph-name="form-number" d="M147.057 568.959l-91.992-80.978-55.065 63.487 149.648 126.326h90.696v-458.662h-93.287v349.827zM321.755 322.137l178.153 160.013c9.070 8.206 18.139 17.491 27.209 27.857s13.604 22.458 13.604 36.278c0 15.548-5.614 27.749-16.844 36.602s-24.401 13.28-39.518 13.28c-18.139 0-32.283-5.614-42.433-16.844s-15.872-25.049-17.167-41.461l-97.174 7.126c1.296 23.754 6.262 44.376 14.9 61.868s20.083 32.067 34.335 43.728c14.252 11.661 30.988 20.407 50.207 26.237s40.057 8.746 62.515 8.746c20.731 0 40.165-2.915 58.305-8.746s33.903-14.468 47.291-25.913c13.389-11.445 23.862-25.805 31.42-43.081s11.337-37.358 11.337-60.248c0-14.684-1.512-27.965-4.535-39.841s-7.234-22.674-12.633-32.391c-5.399-9.717-11.769-18.679-19.111-26.885s-15.332-16.196-23.97-23.97l-139.283-119.848h203.418v-85.513h-320.027v103.005zM813.456 497.050h31.744c9.070 0 17.923 0.648 26.561 1.943s16.52 3.779 23.646 7.45c7.126 3.671 12.849 8.854 17.167 15.548s6.478 15.44 6.478 26.237c0 13.82-5.506 25.265-16.52 34.335s-24.509 13.604-40.489 13.604c-15.116 0-27.641-4.103-37.574-12.309s-16.412-18.355-19.435-30.448l-106.892 22.026c5.183 19.867 12.957 36.818 23.322 50.854s22.674 25.373 36.926 34.011c14.252 8.638 30.124 15.008 47.615 19.111s35.954 6.154 55.389 6.154c20.299 0 39.841-2.483 58.628-7.45s35.307-12.741 49.559-23.322c14.252-10.581 25.589-23.862 34.011-39.841s12.633-34.983 12.633-57.009c0-25.481-6.694-47.291-20.083-65.431s-32.823-29.8-58.305-34.983v-1.943c13.82-1.728 26.021-5.83 36.602-12.309s19.543-14.468 26.885-23.97c7.342-9.502 12.957-20.299 16.844-32.391s5.83-24.833 5.83-38.222c0-22.89-4.427-42.972-13.28-60.248s-20.73-31.636-35.631-43.081c-14.9-11.445-32.391-19.975-52.474-25.589s-41.353-8.422-63.811-8.422c-41.029 0-76.336 9.501-105.92 28.504s-49.127 49.019-58.628 90.048l102.357 23.97c3.455-16.412 10.473-29.368 21.054-38.87s26.237-14.252 46.968-14.252c21.162 0 36.818 5.506 46.968 16.52s15.224 25.157 15.224 42.433c0 12.957-2.699 22.998-8.098 30.124s-12.417 12.417-21.054 15.872c-8.638 3.455-18.355 5.507-29.152 6.154s-21.594 0.972-32.391 0.972h-22.674v84.218z" />
<glyph unicode="&#xe90d;" glyph-name="form-phone" d="M156.882 857.581c-15.401-0.066-28.822-7.118-38.697-16.808-9.726-13.126-16.049-26.169-15.776-38.923 7.772-225.649 79.774-406.118 209.858-529.598 130.258-123.645 317.548-188.822 551.585-188.426 15.054 2.067 29.668 8.502 38.995 17.398 9.89 9.65 17.497 22.684 17.563 38.040 0.393 53.752 0.806 107.585 1.19 161.296-0.441 15.035-7.912 27.502-17.86 36.86s-23.244 16.341-38.697 16.218c-51.015-0.198-119.191 17.436-174.138 30.961-6.24 1.551-13.229-0.293-17.86-4.717l-96.446-92.592c-117.344 69.132-168.582 118.433-240.221 231.183l95.85 92.001c4.866 4.697 6.881 12.093 5.060 18.577-14.66 54.361-39.887 126.77-35.721 180.464-0.791 14.551-13.421 27.64-22.921 34.795-10.029 7.437-23.349 13.675-38.995 13.269-60.923 0-121.847 0-182.77 0z" />
<glyph unicode="&#xe90e;" glyph-name="form-upload" d="M831.502 270.951h90.098v-256.328h-819.2v256.328h90.098v-173.385h639.004v173.385zM563.753 348.548c0.474-25.733-5.673-49.028-50.153-50.502s-51.55 37.057-51.385 50.502v359.868l-149.107-161.452c-12.025-13.802-46.868-6.803-62.228 8.557s-12.508 52.22 0.854 64.687l226.293 222.516c9.222 9.518 21.815 14.877 34.957 14.877s25.734-5.359 34.957-14.877l226.301-222.516c14.256-14.276 14.238-39.087-1.122-59.567s-51.16-23.457-60.265-13.677l-149.102 163.158v-361.574z" />
<glyph unicode="&#xe90f;" glyph-name="form-arrow" d="M504.849 269.888l444.386 434.112 74.765-74.118-521.050-521.442-502.95 521.442 74.765 74.118z" />
<glyph unicode="&#xe910;" glyph-name="magnifier" d="M489.276 960c-213.262 0.064-386.94-173.615-386.876-386.876s173.615-386.813 386.876-386.876c80.724-0.024 155.904 24.755 217.973 67.206l119.477-206.95c8.099-14.018 3.755-30.287-10.312-38.403-14.045-8.103-30.646-3.729-38.759 10.312l-74.317 128.366c-6.161 10.545-17.48 17.002-29.693 16.939s-23.464-6.638-29.515-17.247c-6.051-10.609-5.982-23.64 0.181-34.184l74.317-128.011c26.459-45.796 86.088-62.003 131.922-35.558 45.811 26.431 61.675 86.103 35.203 131.922l-125.166 216.907c71.272 70.181 115.597 167.868 115.565 275.578-0.064 213.262-173.615 386.813-386.876 386.876zM489.276 891.728c176.364-0.052 318.551-142.24 318.604-318.604s-142.24-318.657-318.604-318.604c-176.365 0.053-318.551 142.24-318.604 318.604s142.24 318.657 318.604 318.604z" />
<glyph unicode="&#xe911;" glyph-name="quote" d="M0 576.876c0 161.693 131.078 292.772 292.772 292.772s292.772-131.078 292.772-292.772c0-238.284-148.374-474.351-433.934-520.027l-82.857-13.253 55.517 62.919c48.523 54.993 74.421 118.582 78.014 191.842-118.967 38.561-202.284 150.117-202.284 278.519zM525.308 576.876c0 128.426-104.11 232.536-232.536 232.536s-232.536-104.11-232.536-232.536c0-108.617 75.090-202.085 179.42-226.449l22.988-5.368 0.279-23.605c0.809-68.525-14.38-131.039-45.419-187.045 202.775 66.092 307.805 253.086 307.805 442.467zM576.869 322.14l29.748 52.377c19.218-10.915 39.91-19.040 61.537-24.090l22.988-5.368 0.279-23.605c0.809-68.525-14.38-131.039-45.419-187.045 202.775 66.092 307.805 253.086 307.805 442.467 0 128.426-104.11 232.536-232.536 232.536-41.47 0-81.287-10.844-116.352-31.152l-30.189 52.124c44.178 25.586 94.397 39.263 146.54 39.263 161.693 0 292.772-131.078 292.772-292.772 0-238.284-148.374-474.351-433.934-520.027l-82.857-13.253 55.517 62.919c48.525 54.995 74.423 118.587 78.015 191.849-18.744 6.086-36.797 14.055-53.913 23.776z" />
<glyph unicode="&#xe912;" glyph-name="word" d="M93.65 153.394c92.765-131.361 245.651-217.394 418.361-217.394 282.302 0 511.989 229.691 511.989 512.023 0 282.309-229.686 511.977-511.989 511.977-282.325 0-512.011-229.68-512.011-511.977 0-107.664 33.484-207.607 90.46-290.143 0.908-1.601 1.976-3.088 3.191-4.485zM682.916 26.507c-0.182 0-0.329 0.045-0.488 0.045-49.959 0-62.358 9.958-74.405 19.643-9.424 7.528-15.101 18.292-13.841 26.24 1.067 6.676 6.869 14.897 13.012 23.595 1.794 2.509 3.565 5.019 5.28 7.562 23.776 35.097 37.39 77.688 38.366 119.938 0.136 5.621-1.419 11.15-4.417 15.919-34.040 53.718-99.237 28.875-151.58 8.902-25.524-9.72-53.263-20.302-74.473-21.63 1.839 1.703 3.747 3.418 5.654 5.155 18.984 17.134 42.601 38.447 41.364 72.953-1.283 34.041-28.272 72.204-66.445 74.758-59.281 4.020-84.93 21.313-88.882 34.904-1.215 4.201-0.307 7.676 0.795 9.799 33.041-10.242 93.673-26.456 129.439 16.135 27.148 32.122 23.379 79.754-10.332 130.725l-2.305 3.474c-15.987 24.072-32.507 48.972-26.705 68.161 3.463 11.411 15.748 21.948 26.035 29.817 26.478 20.211 55.795 36.176 87.133 47.451l2.418 0.874c39.695 14.25 99.68 35.79 104.074 92.801 2.373 31.157-14.727 55.285-28.454 74.679-1.873 2.691-3.713 5.325-5.507 7.937 67.547-11.514 130.041-37.947 183.997-75.814l-99.089-138.991c-24.877-34.859-26.342-68.139-3.906-89.054 11.173-10.412 24.73-13.262 32.11-14.829 18.894-3.906 38.412-6.018 58.963-6.279 1.045-0.011 2.328-0.034 3.531-0.068 0.397-1.59 0.84-4.020 1.113-7.619 1.726-24.015-1.306-48.745-8.8-71.534-3.077-9.345-1.113-19.632 5.189-27.194 16.214-19.416 46.019-22.278 72.384-7.017 3.191 1.828 6.347 3.849 9.492 5.882 3.974 2.555 10.605 6.835 12.751 6.915 2.577-0.352 11.581-6.87 16.327-10.617 12.217-9.685 28.965-22.925 51.719-23.061 0.136-0.011 0.238-0.011 0.375-0.011 15.215 0.011 29.805 6.324 41.954 17.293 0.045-2.135 0.182-4.213 0.182-6.347-0.011-190.416-117.653-353.786-284.028-421.493zM954.228 554.506c-5.541-10.287-8.981-20.767-12.002-30.044-2.066-6.393-4.019-12.445-6.347-17.497-4.144-8.913-9.674-12.842-11.093-12.842-3.122 0.023-11.286 6.483-16.679 10.753-12.683 10.037-29.76 23.776-53.91 22.879-13.489-0.511-24.616-5.723-33.597-11.037 2.35 16.839 2.907 33.939 1.658 51.164-1.998 26.502-11.888 44.68-29.362 54.025-11.684 6.268-23.594 6.415-32.417 6.529-15.941 0.216-31.826 1.919-47.064 5.075-0.534 0.114-1.022 0.216-1.442 0.307 1.238 3.452 3.702 8.527 8.028 14.591l97.329 136.527c66.604-60.384 115.167-140.24 136.899-230.43zM512.011 902.943c3.236 0 6.449-0.182 9.697-0.238 5.564-18.417 16.282-33.632 25.922-47.258 10.173-14.352 18.939-26.74 18.144-37.345-1.556-20.143-37.549-33.076-66.468-43.454l-2.464-0.897c-36.833-13.251-71.316-32.020-102.473-55.808-17.1-13.092-37.787-31.6-45.974-58.612-13.614-44.93 12.66-84.478 33.756-116.271l2.259-3.406c13.591-20.54 25.502-49.199 14.284-62.473-11.752-13.989-43.975-6.256-73.871 3.145-18.144 5.757-38.23-0.159-52.446-15.385-17.758-19.076-22.822-47.655-12.864-72.851 11.127-28.182 44.066-63.097 137.626-69.433 4.496-0.295 12.91-10.48 13.262-19.927 0.261-7.335-8.754-16.044-22.572-28.511-15.26-13.773-32.553-29.386-40.251-52.753-3.508-10.651-0.466-22.38 7.812-29.953 44.202-40.524 108.286-16.112 159.801 3.531 35.857 13.671 65.003 23.788 77.925 18.156-2.646-27.535-12.365-54.706-27.841-77.608-1.51-2.203-3.066-4.417-4.633-6.608-8.754-12.376-19.643-27.785-22.799-47.587-4.564-28.523 8.697-59.078 34.506-79.709 1.624-1.306 3.259-2.6 4.95-3.872-21.335-3.077-43.135-4.758-65.287-4.758-151.069 0-285.095 74.077-367.88 187.748 2.577 48.507 25.456 81.798 44.282 108.686l2.6 3.702c5.938 8.573 13.818 21.892 13.523 38.719-0.42 19.223-11.025 32.678-18.757 42.5-1.465 1.862-2.929 3.713-4.258 5.552-18.632 26.263-5.836 67.105 15.658 92.188l1.998 2.328c9.912 11.423 24.9 28.682 23.129 52.617-1.487 22.175-17.361 41.58-40.535 49.483-16.407 5.53-32.882 4.36-46.746 2.487-21.335-2.816-42.249-7.687-62.676-14.216 51.708 194.413 229.187 338.093 439.662 338.093zM60.030 499.22c26.365 11.559 53.978 19.541 82.5 23.3 7.448 0.999 15.748 1.783 20.892 0.045 0.329-0.114 0.647-0.238 0.908-0.386-1.93-3.032-5.745-7.415-8.255-10.287l-2.214-2.589c-36.436-42.523-54.626-111.945-18.848-162.382 1.885-2.623 3.906-5.223 5.938-7.812 2.044-2.566 4.928-6.234 6.165-8.436-0.42-0.92-1.283-2.475-2.952-4.882l-2.509-3.577c-12.467-17.793-28.522-40.763-40.069-70.353-28.522 59.418-44.532 125.956-44.532 196.161 0 17.316 1.067 34.37 2.975 51.198z" />
<glyph unicode="&#xe913;" glyph-name="paperplane" d="M0.38 727.693c1.722 8.146 8.835 13.995 17.118 14.029l977.76 4.944c0.045 0 0.068 0 0.090 0 0.090 0 0.169-0.045 0.248-0.045 0.36 0 0.687-0.045 1.035-0.079 0.788-0.057 1.564-0.124 2.33-0.283 0.056 0 0.113-0.034 0.158-0.034 0.158-0.045 0.304-0.102 0.461-0.124 0.315-0.079 0.619-0.204 0.934-0.283 1.519-0.486 2.96-1.086 4.288-1.923 0.068-0.045 0.124-0.124 0.203-0.158 1.328-0.882 2.498-1.946 3.545-3.134 0.101-0.124 0.248-0.204 0.349-0.317 0.056-0.079 0.079-0.158 0.135-0.238 0.169-0.204 0.338-0.385 0.495-0.6 0.056-0.079 0.090-0.158 0.135-0.238 0.585-0.803 1.092-1.652 1.531-2.557 0.056-0.113 0.079-0.215 0.124-0.339 0.045-0.113 0.090-0.215 0.124-0.339 0.124-0.26 0.225-0.543 0.315-0.826 0.214-0.566 0.416-1.086 0.574-1.652 0.011 0 0.023-0.034 0.023-0.034 0.034-0.204 0.034-0.407 0.090-0.566 0.169-0.803 0.349-1.573 0.428-2.376 0-0.102-0.023-0.204-0.011-0.317 0.022-0.305-0.011-0.577-0.011-0.882 0.023-0.826 0.034-1.652-0.068-2.455-0.023-0.181-0.079-0.339-0.101-0.498-0.045-0.215-0.090-0.464-0.135-0.701-0.045-0.283-0.101-0.566-0.169-0.849-0.090-0.385-0.146-0.781-0.281-1.165-0.011-0.034-0.056-0.124-0.068-0.204-0.315-0.928-0.698-1.867-1.159-2.749-0.034-0.057-0.101-0.147-0.135-0.226-0.023-0.034-0.056-0.057-0.068-0.102-0.045-0.079-0.056-0.181-0.101-0.26l-323.973-561.944c-2.87-4.978-7.968-8.248-13.674-8.757-0.518-0.034-1.024-0.079-1.542-0.079-5.154 0-10.084 2.285-13.437 6.302l-187.168 223.13-204.443-78.031c-0.124-0.034-0.912-0.362-1.024-0.396-2.026-0.758-4.119-1.12-6.201-1.12-5.199 0-10.264 2.331-13.685 6.562-3.815 4.752-4.727 10.997-2.881 16.597l19.233 272.843-251.339 112.697c-7.563 3.372-11.761 11.619-10.050 19.776zM668.695 197.643l287.498 498.711-543.879-193.047 256.381-305.664zM446.719 407.434l-62.28 74.264-82.020-129.328 144.301 55.064zM367.636 520.957c0.326 0.498 0.732 0.882 1.092 1.346 0.405 0.498 0.765 1.018 1.204 1.482 0.383 0.385 0.777 0.701 1.193 1.041 0.304 0.283 0.608 0.52 0.945 0.758 0.36 0.283 0.698 0.566 1.080 0.803 0.687 0.441 1.441 0.758 2.172 1.086 0.428 0.204 0.81 0.464 1.249 0.622 0.011 0.023 0.022 0.023 0.034 0.023l418.699 148.618-498.547-85.521-14.473-204.825 85.351 134.566zM282.487 624.648l498.919 85.577-682.136-3.428 183.217-82.149z" />
<glyph unicode="&#xe914;" glyph-name="facebook" d="M512-64c282.77 0 512 229.23 512 512s-229.23 512-512 512c-282.77 0-512-229.23-512-512s229.23-512 512-512zM439.726 169.478v278.544h-57.497v95.992h57.497v57.633c0 78.31 32.466 124.876 124.708 124.876h76.793v-96.002h-48.001c-35.907 0-38.282-13.415-38.282-38.451l-0.13-48.045h86.958l-10.175-95.992h-76.782v-278.555h-115.087z" />
<glyph unicode="&#xe915;" glyph-name="twitter" d="M512-64c-282.77 0-512 229.23-512 512s229.23 512 512 512c282.77 0 512-229.23 512-512s-229.23-512-512-512zM583.12 647.969c-44.702-16.27-72.954-58.211-69.735-104.129l1.073-17.716-17.881 2.169c-65.086 8.316-121.947 36.517-170.226 83.882l-23.603 23.501-6.079-17.355c-12.874-38.687-4.649-79.543 22.172-107.021 14.305-15.185 11.086-17.355-13.589-8.316-8.583 2.892-16.093 5.062-16.808 3.977-2.503-2.531 6.079-35.433 12.874-48.449 9.298-18.078 28.252-35.794 48.993-46.279l17.523-8.316-20.742-0.362c-20.027 0-20.742-0.362-18.596-7.954 7.152-23.501 35.404-48.449 66.874-59.296l22.172-7.593-19.311-11.57c-28.609-16.632-62.225-26.032-95.841-26.755-16.093-0.362-29.325-1.808-29.325-2.892 0-3.616 43.629-23.863 69.020-31.817 76.172-23.501 166.649-13.378 234.597 26.755 48.278 28.563 96.556 85.328 119.086 140.285 12.159 29.286 24.318 82.797 24.318 108.467 0 16.632 1.073 18.801 21.099 38.687 11.801 11.57 22.887 24.224 25.033 27.84 3.576 6.87 3.219 6.87-15.020 0.723-30.397-10.847-34.689-9.401-19.669 6.87 11.086 11.57 24.318 32.54 24.318 38.687 0 1.085-5.364-0.723-11.444-3.977-6.437-3.616-20.742-9.039-31.47-12.293l-19.311-6.146-17.523 11.931c-9.656 6.508-23.245 13.739-30.397 15.909-18.238 5.062-46.133 4.339-62.583-1.446z" />
<glyph unicode="&#xe916;" glyph-name="instergram" d="M512-64c282.77 0 512 229.23 512 512s-229.23 512-512 512c-282.77 0-512-229.23-512-512s229.23-512 512-512zM720.308 187.648h-416.615c-1.108 0.178-2.223 0.394-3.331 0.528-22.905 2.944-42.16 20.43-47.26 42.986-0.595 2.632-0.974 5.301-1.45 7.947v417.76c0.171 0.974 0.372 1.94 0.506 2.914 3.286 23.374 20.355 41.952 43.424 47.208 2.483 0.565 5.018 0.907 7.538 1.36h417.76c0.966-0.171 1.926-0.387 2.907-0.513 23.634-3.234 42.881-21.344 47.439-44.681 0.446-2.275 0.758-4.565 1.123-6.847v-416.622c-0.379-2.32-0.706-4.669-1.152-6.981-4.156-21.389-21.53-39.127-42.792-43.64-2.676-0.58-5.39-0.959-8.096-1.42zM307.982 497.223v-1.405c0-77.057-0.007-154.115 0.007-231.172 0-11.085 9.598-20.616 20.682-20.616 122.191-0.007 244.375-0.007 366.567 0 11.189 0 20.734 9.516 20.734 20.682 0.007 76.968 0 153.929 0 230.889v1.598h-49.706c7.018-22.43 9.174-45.246 6.423-68.5-2.766-23.262-10.259-44.911-22.467-64.902-12.215-20.013-28.050-36.592-47.439-49.788-50.256-34.228-116.422-37.239-169.749-7.308-26.957 15.114-48.123 36.191-62.88 63.348-22.013 40.525-25.53 83.057-12.616 127.187-16.489-0.015-32.912-0.015-49.558-0.015zM512.004 553.516c-57.75 0.037-104.698-46.428-105.509-103.918-0.833-59.036 46.428-105.836 103.085-107.055 58.955-1.264 106.639 45.84 107.88 103.13 1.271 59.081-46.383 107.88-105.457 107.843zM670.23 574.667v0.097c8.564 0 17.159-0.164 25.73 0.045 11.025 0.275 20.006 9.724 20.006 20.764 0.007 16.437 0.007 32.882 0 49.32 0 11.791-9.33 21.173-21.106 21.181-16.393 0.007-32.786 0.015-49.186 0-11.746-0.015-21.106-9.419-21.114-21.21-0.007-16.296-0.052-32.592 0.059-48.896 0.015-2.431 0.476-4.959 1.249-7.263 2.944-8.676 10.891-13.999 20.623-14.044 7.91-0.015 15.82 0.007 23.738 0.007z" />
<glyph unicode="&#xe917;" glyph-name="youtube" d="M512-64c-282.77 0-512 229.23-512 512s229.23 512 512 512c282.77 0 512-229.23 512-512s-229.23-512-512-512zM511.788 686.933c0 0-213.361 0-266.912-13.915-28.673-8.011-52.283-31.622-60.295-60.716-13.915-53.551-13.915-164.45-13.915-164.45s0-111.32 13.915-164.028c8.012-29.094 31.2-52.283 60.295-60.295 53.973-14.336 266.912-14.337 266.912-14.337s213.784 0 267.334 13.915c29.095 8.012 52.283 30.779 59.873 60.295 14.337 53.13 14.337 164.028 14.337 164.028s0.421 111.321-14.337 164.872c-7.59 29.095-30.778 52.283-59.873 59.873-53.55 14.758-267.334 14.759-267.334 14.759zM409.767 584.447l245.788-141.864-245.788-141.28v283.144z" />
<glyph unicode="&#xe918;" glyph-name="tripadvisor" d="M512-64c282.77 0 512 229.23 512 512s-229.23 512-512 512c-282.77 0-512-229.23-512-512s229.23-512 512-512zM615.876 695.645c23.006-3.263 45.535-9.060 67.788-15.922 38.861-12.004 75.532-28.681 110.019-50.315 2.4-1.493 5.603-2.441 8.43-2.441 40.517-0.168 81.009-0.109 121.476-0.143 3.261 0 6.506-0.344 9.759-0.528 0-0.797 0.117-1.132-0.017-1.309-1.89-2.928-3.805-5.797-5.703-8.707-13.748-21.148-25.489-43.252-32.414-67.697-0.761-2.617-0.912-4.824 0.861-7.399 36.060-51.943 47.567-108.969 32.497-170.442-13.213-53.914-44.021-95.95-90.827-125.705-33.459-21.282-70.422-31.416-109.919-31.634-16.583-0.101-33.099 2.139-49.306 6.35-39.497 10.285-73.349 30.023-101.238 59.937-3.671 3.926-7.142 8.028-11.064 12.457-14.752-22.054-29.269-43.747-44.13-66.002-14.81 22.197-29.127 43.68-43.411 65.080-0.987-0.52-1.271-0.579-1.463-0.763-0.326-0.268-0.602-0.596-0.87-0.906-33.735-39.972-76.184-64.476-127.907-72.671-28.759-4.572-57.259-2.928-85.199 4.798-39.597 10.914-73.249 31.869-100.436 62.781-26.577 30.233-43.093 65.331-49.306 105.245-7.1 37.237 1.555 73.158 3.705 81.874 6.255 25.334 17.16 48.596 32.129 69.987 1.054 1.518 1.422 4.203 0.92 6.015-6.105 22.457-16.625 42.883-28.943 62.445-3.128 4.974-6.874 9.58-10.336 14.353v1.661c0.694-0.092 1.38-0.218 2.057-0.218 41.445-0.017 82.882-0.034 124.328 0.050 1.806 0 3.813 0.747 5.352 1.736 29.119 18.74 60.144 33.588 92.742 45.148 23.516 8.322 47.508 14.823 71.986 19.571 23.7 4.597 47.525 7.843 71.601 9.429 58.714 4.505 105.629-1.728 136.838-6.115zM563.919 421.074c0-91.294 73.842-165.87 164.527-165.517 91.028 0.327 164.535 72.814 164.469 165.115-0.067 95.119-76.987 166.625-167.998 164.779-89.848-1.887-160.179-74.534-160.998-164.377zM317.128 586.063c-88.527 0.772-165.715-73.342-164.168-167.749 1.438-88.031 73.775-162.674 166.016-161.877 90.183 0.78 162.671 74.643 162.838 164.1 0.134 91.907-73.24 165.526-164.686 165.526zM325.29 629.131c50-3.062 93.938-20.544 131.051-54.401 37.038-33.79 58.739-75.943 66.625-125.512 8.12 48.982 29.244 90.732 65.588 124.195 36.411 33.488 79.746 51.062 128.936 54.778-58.363 26.030-119.921 37.086-183.268 38.311-72.011 1.418-142.048-9.228-208.933-37.372zM728.111 525.228c56.323 0.101 101.941-45.425 101.941-101.864 0-56.657-44.841-100.463-97.743-102.476-59.082-2.273-106.356 44.938-106.34 102.225 0.050 57.932 47.659 103.072 102.142 102.116zM794.544 423.113c-0.025 36.835-29.713 66.757-66.165 66.757-36.879 0-66.901-29.771-67.060-66.489-0.134-36.558 30.047-66.975 66.575-67.076 36.603-0.143 66.667 30.048 66.65 66.808zM314.954 525.228c56.289 0.059 101.974-45.542 101.841-101.965-0.167-57.127-45.050-99.96-97.024-102.334-59.316-2.726-107.176 44.703-107.067 102.292 0.117 58.343 48.052 102.98 102.25 102.007zM381.312 423.339c-0.117 37.053-29.98 66.59-67.269 66.522-35.976-0.067-66.107-30.518-66.032-66.732 0.092-36.633 30.198-66.757 66.834-66.858 36.419-0.084 66.558 30.334 66.466 67.068zM728.162 457.011c18.665 0.017 33.969-15.343 33.794-33.957-0.176-18.656-15.228-33.773-33.584-33.781-18.908 0-34.095 14.982-34.053 33.546 0.033 19.26 14.794 34.176 33.844 34.192zM314.778 457.313c18.95 0.017 34.178-15.167 34.253-34.117 0.075-18.782-15.295-34.209-34.153-34.259-19.309-0.042-34.203 14.923-34.187 34.402 0 19.109 14.86 33.949 34.086 33.974z" />
<glyph unicode="&#xe919;" glyph-name="whatsapp" d="M512-64c-282.77 0-512 229.23-512 512s229.23 512 512 512c282.77 0 512-229.23 512-512s-229.23-512-512-512zM819.2 455.904c0 165.285-135.013 299.256-301.6 299.296-166.607 0-301.6-133.991-301.62-299.276 0-56.497 15.807-109.429 43.255-154.507l-54.434-160.617 166.988 53.031c43.235-23.681 92.9-37.204 145.771-37.204 166.607 0 301.64 133.991 301.64 299.276zM520.064 706.695c138.205 0 250.67-112.433 250.63-250.591 0-138.217-112.445-250.63-250.63-250.63-50.886 0-98.268 15.247-137.868 41.429l-96.268-30.832 31.284 93.056c-29.997 41.309-47.738 92.078-47.738 146.918 0 138.217 112.405 250.65 250.591 250.65zM688.683 390.263c-2.027 2.993-7.33 4.817-15.264 8.464-7.912 3.647-47.085 21.19-54.35 23.568-7.33 2.438-12.634 3.667-17.937-3.608-5.239-7.275-20.503-23.608-25.181-28.484-4.635-4.856-9.27-5.471-17.226-1.883-7.955 3.687-33.61 11.298-64.009 36.016-23.65 19.267-39.625 42.994-44.239 50.268-4.678 7.255-0.474 11.18 3.471 14.787 3.557 3.271 7.955 8.484 11.944 12.745 3.988 4.222 5.304 7.215 7.955 12.071 2.609 4.856 1.294 9.078-0.668 12.745-1.983 3.647-17.872 39.327-24.534 53.856-6.619 14.51-13.237 12.111-17.894 12.111-4.635 0-9.939 0.595-15.242 0.595s-13.927-1.764-21.192-9.039c-7.265-7.275-27.833-24.817-27.833-60.536 0-35.759 28.479-70.229 32.468-75.065 4.010-4.817 55.062-80.516 135.929-109.575 80.911-29.039 80.911-19.346 95.485-18.117 14.617 1.229 47.085 17.542 53.682 34.47 6.64 17.007 6.64 31.576 4.635 34.609z" />
<glyph unicode="&#xe91a;" glyph-name="mail" horiz-adv-x="1092" d="M966.499 857.6h-856.161c-61.85 0-110.337-48.474-110.337-110.337v-632.659c0-61.85 48.474-110.337 110.337-110.337h856.161c61.85 0 110.337 48.474 110.337 110.337v632.659c0 61.863-48.487 110.337-110.337 110.337zM1013.431 237.473l-218.307 253.838 218.307 153.979v-407.817zM110.337 794.195h856.161c25.868 0 46.932-21.052 46.932-46.932v-23.599l-475.104-339.567-474.922 336.109v27.057c0 25.881 21.065 46.932 46.932 46.932zM63.405 650.675l217.38-160.395-217.38-252.807v413.202zM966.499 67.685h-856.161c-25.868 0-46.932 21.052-46.932 46.932v36.359l262.476 300.319 193.678-132.013c5.651-3.994 12.242-5.991 18.846-5.991 6.656 0 13.299 2.023 18.977 6.082l189.985 135.587 266.051-303.998v-36.359c0.013-25.868-21.052-46.919-46.919-46.919z" />
<glyph unicode="&#xe91b;" glyph-name="marker" horiz-adv-x="785" d="M391.529-64c-8.433 0-16.565 3.614-22.287 9.939-15.36 16.866-369.242 413.816-369.242 622.532 0 215.944 175.586 391.529 391.529 391.529s391.529-175.586 391.529-391.529c0-208.715-353.882-605.666-369.242-622.532-5.722-6.325-13.854-9.939-22.287-9.939zM391.529 899.765c-182.814 0-331.294-148.48-331.294-331.294 0-143.661 221.365-429.478 331.294-556.875 109.929 127.398 331.294 413.214 331.294 556.875 0 182.814-148.48 331.294-331.294 331.294zM557.176 568.471c0-91.256-74.391-165.647-165.647-165.647s-165.647 74.391-165.647 165.647c0 91.256 74.391 165.647 165.647 165.647s165.647-74.391 165.647-165.647zM286.118 568.471c0-58.127 47.285-105.412 105.412-105.412s105.412 47.285 105.412 105.412c0 58.127-47.285 105.412-105.412 105.412s-105.412-47.285-105.412-105.412z" />
<glyph unicode="&#xe91c;" glyph-name="phone" horiz-adv-x="956" d="M500.376 716.23c-10.567 7.548 3.019 37.739 12.077 46.797 7.548 10.567 36.23 12.077 46.797 4.529 108.69-86.046 187.188-209.831 217.379-347.203 3.019-12.077-19.625-24.153-31.701-27.172-1.51 0-3.019 0-4.529 0-10.567 0-34.72 7.548-37.739 18.115-28.682 126.805-101.142 224.927-202.283 304.935zM932.115 403.748c1.51-12.077-37.739-24.153-49.816-25.663 0 0-1.51 0-3.019 0-10.567 0-21.134 9.057-22.644 19.625-31.701 205.303-153.977 384.942-333.617 492.122-10.567 7.548-13.586 21.134-7.548 31.701s36.23 43.778 46.797 37.739c191.716-113.218 335.126-335.126 369.847-555.525zM705.255 207.421c25.905-20.148 33.1-57.566 15.831-87.787l-108.799-153.412c-11.513-18.709-33.1-30.222-56.126-30.222-5.757 0-12.952 1.439-18.709 2.878-171.257 53.248-319.489 200.904-415.911 350.574-103.618 159.744-142.475 349.71-110.814 548.311 4.317 31.661 31.661 56.126 64.761 56.126h180.756c33.1 0 59.005-21.587 64.761-53.248l25.905-149.67c4.317-25.904-7.196-51.809-30.222-66.2l-83.47-50.37c-8.635-5.757-12.952-14.391-10.074-24.465 25.904-113.692 112.253-227.384 177.014-289.267 7.196-7.196 18.709-8.635 28.783-2.878l73.396 48.931c23.026 15.831 54.687 15.831 77.713-2.878l125.205-96.422zM658.446 129.929c5.757 8.635 4.317 23.026-5.757 27.344l-99.982 85.37c-7.196 7.196-18.709 7.196-25.904 1.439l-85.888-60.856c-27.344-15.831-46.274-11.513-67.861 8.635-73.396 70.518-196.892 224.235-225.675 348.001-7.196 28.783-8.413 56.126 16.052 70.518l97.64 68.791c7.196 5.757 11.513 14.391 10.074 23.026l-18.536 104.588c-1.439 11.513-10.074 18.709-21.587 18.709l-126.626-3.684c-11.513 0-20.148-8.635-21.587-18.709-30.222-188.527 5.757-338.073 103.618-489.183 90.666-139.596 205.040-245.22 366.223-295.59 10.074-2.878 21.587 0 25.905 8.635l79.892 102.967z" />
<glyph unicode="&#xe91d;" glyph-name="calendar" horiz-adv-x="1065" d="M277.68 960c-18.381 0-33.28-14.853-33.28-33.175v-127.516c-38.591-13.805-66.56-50.696-66.56-93.65 0-54.573 45.094-99.525 99.84-99.525s99.84 44.952 99.84 99.525c0 42.954-27.969 79.845-66.56 93.65v127.516c0 18.322-14.901 33.175-33.28 33.175zM787.973 960c-18.381 0-33.28-14.853-33.28-33.175v-127.516c-38.591-13.805-66.56-50.696-66.56-93.65 0-54.573 45.094-99.525 99.84-99.525s99.839 44.952 99.839 99.525c0 42.954-27.968 79.845-66.559 93.65v127.516c0 18.322-14.901 33.175-33.28 33.175zM122.373 864.899c-67.212 0-122.373-54.988-122.373-121.987v-684.924c0-67 55.161-121.988 122.373-121.988h820.213c67.212 0 122.374 54.987 122.374 121.988v684.924c0 66.999-55.162 121.987-122.374 121.987h-66.213c-17.582 0.248-33.627-15.646-33.627-33.175s16.045-33.423 33.627-33.175h66.213c31.426 0 55.814-24.31 55.814-55.637v-187.646h-931.84v187.646c0 31.327 24.387 55.637 55.813 55.637h66.213c17.582-0.248 33.627 15.646 33.627 33.175s-16.045 33.423-33.627 33.175h-66.213zM366.080 864.899c-18.381 0-33.28-14.852-33.28-33.175 0-18.321 14.899-33.175 33.28-33.175h332.8c18.381 0 33.28 14.854 33.28 33.175 0 18.323-14.899 33.175-33.28 33.175h-332.8zM277.68 738.834c18.774 0 33.28-14.46 33.28-33.175s-14.506-33.175-33.28-33.175c-18.774 0-33.28 14.46-33.28 33.175s14.506 33.175 33.28 33.175zM787.973 738.834c18.774 0 33.28-14.46 33.28-33.175s-14.506-33.175-33.28-33.175c-18.774 0-33.28 14.46-33.28 33.175s14.506 33.175 33.28 33.175zM66.56 488.916h931.84v-430.928c0-31.327-24.388-55.638-55.814-55.638h-820.213c-31.426 0-55.813 24.311-55.813 55.638v430.928z" />
<glyph unicode="&#xe91e;" glyph-name="person" horiz-adv-x="942" d="M660.924 452.119c60.988 53.158 99.783 131.169 99.783 218.236 0 159.703-129.942 289.645-289.656 289.645s-289.645-129.942-289.645-289.656c0-159.737 129.942-289.679 289.645-289.679 89.567 0 381.882-13.92 381.882-193.111 0-75.613-43.443-162.35-381.882-162.35-338.485 0-381.871 86.738-381.871 162.35 0 78.658 55.238 134.692 164.294 166.532 23.659 6.92 37.181 31.647 30.284 55.272-6.886 23.682-31.522 37.352-55.306 30.318-147.339-42.988-228.452-132.601-228.452-252.122 0-251.554 342.189-251.554 471.052-251.554 128.839 0 471.052 0 471.052 251.565 0 134.544-102.306 227.691-281.179 264.554zM270.577 670.344c0 110.556 89.931 200.475 200.475 200.475 110.556 0 200.486-89.919 200.486-200.475s-89.931-200.464-200.486-200.464c-110.544 0-200.475 89.908-200.475 200.464z" />
</font>
</defs>
</svg>
